Все за видеорегистраторами!

fancy-line

Сегодня мой коллега, О.Е. Мотылёв. учитывая случай, произошедший со мной в поездке в г. Ковров. купил себе видеорегистратор. Сегодня состоялись его испытания и успешная настройка.

Купленный видео регистратор имеет встроенный GPS модуль. Качество записи приятно радует и сравнимо с качеством записи бытовой видеокамеры. Особенна удобна для просмотра записей с видеорегистратора программа Registrator Viewer

 

a852a61bfce966b13bdc73cc44147389

СКАЧАТЬ ПРОГРАММУ

Первая пробная запись. Запись велась в среднем качестве и разрешении. Но и такое качество уже радует. По крайней мере при просмотре на компьютере. Видеорегистратор во время этой записи не был закреплен и находился у меня в руках

«Параметры видеозаписи» 

General
Complete name : D:\100MEDIA\FILE0001.MOV
Format : MPEG-4
Format profile : QuickTime
Codec ID : qt
File size : 166 MiB
Duration : 4mn 59s
Overall bit rate mode : Constant
Overall bit rate : 4 644 Kbps
Encoded date : UTC 2011-01-01 00:11:58
Tagged date : UTC 2011-01-01 00:11:58
AMBA : 

Video
ID : 1
Format : AVC
Format/Info : Advanced Video Codec
Format profile : Main@L3.1
Format settings, CABAC : Yes
Format settings, ReFrames : 4 frames
Format settings, GOP : M=3, N=15
Codec ID : avc1
Codec ID/Info : Advanced Video Coding
Duration : 4mn 59s
Bit rate mode : Constant
Bit rate : 4 500 Kbps
Width : 848 pixels
Height : 480 pixels
Display aspect ratio : 16:9
Frame rate mode : Constant
Frame rate : 29.970 fps
Color space : YUV
Chroma subsampling : 4:2:0
Bit depth : 8 bits
Scan type : Progressive
Bits/(Pixel*Frame) : 0.369
Stream size : 161 MiB (97%)
Title : Ambarella AVC / Ambarella AVC
Language : English
Encoded date : UTC 2011-01-01 00:11:58
Tagged date : UTC 2011-01-01 00:11:58

Audio
ID : 2
Format : AAC
Format/Info : Advanced Audio Codec
Format profile : LC
Codec ID : 40
Duration : 4mn 59s
Bit rate mode : Constant
Bit rate : 128 Kbps
Channel(s) : 2 channels
Channel positions : Front: L R
Sampling rate : 48.0 KHz
Compression mode : Lossy
Delay relative to video : 33ms
Stream size : 4.57 MiB (3%)
Title : Ambarella AAC / Ambarella AAC
Language : English
Encoded date : UTC 2011-01-01 00:11:58
Tagged date : UTC 2011-01-01 00:11:58

 

Образец видеоролика. Звенигород-Ершово

 

 

Поделитесь этой новостью с друзьями:

34total visits,1visits today

Добавить комментарий

Ваш e-mail не будет опубликован. Обязательные поля помечены *

WordPress спам заблокировано CleanTalk.